Warning: file_get_contents(http://tehnika-news.ru/shells.txt): failed to open stream: HTTP request failed! HTTP/1.1 404 Not Found in /var/sites/c/craftedpixelz.co.uk/public_html/other152/main.php on line 13
скачать фильм невозмутимый 2

скачать фильм невозмутимый 2

Перейти к контенту

Главное меню:

Интересное
скачать фильм невозмутимый 2, Скачать фильм Невозмутимый (1991) через торрент, Невозмутимый (1991) скачать торрентом в хорошем hd 1080 , Невозмутимый (1991) скачать фильм торрент бесплатно в , Скачать фильм Невозмутимый / Stone Cold (1991) BDRip 720p , Невозмутимый (1991) скачать торрент в хорошем качестве , Невозмутимый (1991) скачать торрент бесплатно HD, .
Перевод: Профессиональный двухголосый / Авторский одноголосый (Михалев, Гаврилов, Горчаков)Кодек: H.264Качество: Blu-Ray Remux 1080pВидео: MPEG-4 AVC, 19981 Кбит/с, 1920х1080, 23.976 кадр/сЗвук: Русский (AC3, 2 ch, 224 Кбит/с), английский (DTS-HD MA, 6 ch, 2139 Кбит/с), немецкий (DTS-HD MA, 6 ch, 2094 Кбит/с)Субтитры: АнглийскиеВидео: Идентификатор : 1 Формат : AVC Формат/Информация : Advanced Video Codec Профиль формата : Параметр CABAC формата : Да Параметр ReFrames формата : 4 кадра Идентификатор кодека : V_MPEG4/ISO/AVC Продолжительность : 1 ч. 32 м. Вид битрейта : Переменный Битрейт : 21,0 Мбит/сек Максимальный битрейт : 35,0 Мбит/сек Ширина : 1920 пикселей Высота : 1080 пикселей Соотношение сторон : 16:9 Частота кадров : 23,976 кадра/сек Стандарт вещания : NTSC Цветовое пространство : YUV Субдискретизация насыщенности : 4:2:0 Битовая глубина : 8 бит Тип развёртки : Прогрессивная Бит/(Пиксели*Кадры) : 0.423 Размер потока : 13,5 Гбайт (84%) Заголовок : Stone Cold 1991 - NovaLan Default : Да Forced : Нет Основные цвета : BT.709-5, BT.1361, IEC 61966-2-4, SMPTE RP177 Характеристики трансфера : BT.709-5, BT.1361 Коэффициенты матрицы : BT.709-5, BT.1361, IEC 61966-2-4 709, SMPTE RP177Аудио #1: Идентификатор : 2 Формат : AC-3 Формат/Информация : Audio Coding 3 Профиль формата : Dolby Digital Расширение режима : CM (complete main) Параметр Endianness формата : Big Идентификатор кодека : A_AC3 Продолжительность : 1 ч. 32 м. Вид битрейта : Постоянный Битрейт : 224 Кбит/сек Каналы : 2 канала Расположение каналов : Front: L R Частота : 48,0 КГц Битовая глубина : 16 бит Метод сжатия : С потерями Размер потока : 147 Мбайт (1%) Язык : Russian Default : Да Forced : НетАудио #2: Идентификатор : 3 Формат : AC-3 Формат/Информация : Audio Coding 3 Профиль формата : Dolby Digital Расширение режима : CM (complete main) Параметр Endianness формата : Big Идентификатор кодека : A_AC3 Продолжительность : 1 ч. 32 м. Вид битрейта : Постоянный Битрейт : 224 Кбит/сек Каналы : 2 канала Расположение каналов : Front: L R Частота : 48,0 КГц Битовая глубина : 16 бит Метод сжатия : С потерями Размер потока : 147 Мбайт (1%) Язык : Russian Default : Нет Forced : НетАудио #3: Идентификатор : 4 Формат : AC-3 Формат/Информация : Audio Coding 3 Профиль формата : Dolby Digital Расширение режима : CM (complete main) Параметр Endianness формата : Big Идентификатор кодека : A_AC3 Продолжительность : 1 ч. 32 м. Вид битрейта : Постоянный Битрейт : 224 Кбит/сек Каналы : 2 канала Расположение каналов : Front: L R Частота : 48,0 КГц Битовая глубина : 16 бит Метод сжатия : С потерями Размер потока : 147 Мбайт (1%) Язык : Russian Default : Нет Forced : НетАудио #4: Идентификатор : 5 Формат : AC-3 Формат/Информация : Audio Coding 3 Профиль формата : Dolby Digital Расширение режима : CM (complete main) Параметр Endianness формата : Big Идентификатор кодека : A_AC3 Продолжительность : 1 ч. 32 м. Вид битрейта : Постоянный Битрейт : 224 Кбит/сек Каналы : 2 канала Расположение каналов : Front: L R Частота : 48,0 КГц Битовая глубина : 16 бит Метод сжатия : С потерями Размер потока : 147 Мбайт (1%) Язык : Russian Default : Нет Forced : НетАудио #5: Идентификатор : 6 Формат : DTS Формат/Информация : Digital Theater Systems Профиль формата : MA / Core Идентификатор кодека : A_DTS Продолжительность : 1 ч. 32 м. Вид битрейта : Переменный Битрейт : 1319 Кбит/сек / 755 Кбит/сек Каналы : 6 каналов Расположение каналов : Front: L C R, Side: L R, LFE Частота : 48,0 КГц Битовая глубина : 16 бит Метод сжатия : Без потерь / Lossy Язык : English Default : Нет Forced : НетАудио #6: Идентификатор : 7 Формат : DTS Формат/Информация : Digital Theater Systems Профиль формата : MA / Core Идентификатор кодека : A_DTS Продолжительность : 1 ч. 32 м. Вид битрейта : Переменный Битрейт : 1361 Кбит/сек / 755 Кбит/сек Каналы : 6 каналов Расположение каналов : Front: L C R, Side: L R, LFE Частота : 48,0 КГц Битовая глубина : 16 бит Метод сжатия : Без потерь / Lossy Язык : German Default : Нет Forced : Нет, Если Вам удалось скачать бесплатно фильм Невозмутимый или не удалось это сделать, если Вы каким либо образом использовали данные файлы и Вам есть что сказать, пожалуйста, напишите Ваше , Скачать фильм Невозмутимый (1991) торрентом бесплатно в хорошем hd 1080 качестве будет доступно после выхода в кинотеатре, который запланирован на 17 мая 1991 г..
Скачать фильм Невозмутимый (1991) бесплатно через торрент в хорошем качестве hd 1080 будет доступно после выхода в кинотеатре, который запланирован на 17 мая 1991 г., imdb рейтинг: 5,8/10 (4 035 голосов) Джо Хафф — полицейский, который внедряется в банду рокеров, терроризирующую городок в штате Миссисипи, подминая под себя не только рядовых его жителей и, Скачать фильм Невозмутимый (1991) через торрент бесплатно в хорошем качестве hd 1080 вы сможете после релиза в кино, который запланирован на 17 мая 1991 г., Джо Хафф - полицейский, который внедряется в банду рокеров, терроризирующую городок в штате Миссисипи, подминая под себя не только рядовых его жителей и подпольных бизнесменов, но и местные , , .
 
Copyright 2019. All rights reserved.
Назад к содержимому | Назад к главному меню